Skip to main content

Paul Barrere and Fred Tackett Acoustic Duo Live at Bamboo Room on 2012-10-19




crowd/tuning
Ain't Had Enough Fun
Honest Man
Sailin' Shoes
Gold Tooth Woman
Two Trains >
Rocket In My Pocket
Willin' >
Don't Bogart That Joint >
Long Black Veil >
Willin'
Down On The Farm >
Candyman Blues


Collection PaulBarrereandFredTackettAcousticDuo
Band/Artist Paul Barrere and Fred Tackett Acoustic Duo
Venue Bamboo Room
Location Lake Worth, FL

Source Schoeps cmc6/mk4v > Tascam DR-680 (24/44.1)
Lineage D> WaveLab 7.2.1> .wav@24/44.1> Apogee UV22HR> .wav@16/44.1> xAct 2.20> flac16 (level eight)
Taped by Chris Cafiero
Transferred by Edited and mastered by Alex Ford

Notes

Shn ID 123334

Paul and Fred Acoustic Duo
10/19/2012 - Friday
Bamboo Room
Lake Worth, FL

Source: Schoeps cmc6/mk4v > Tascam DR-680 (24/44.1)

Lineage: SD> WaveLab 7.2.1> .wav@24/44.1> Apogee UV22HR> .wav@16/44.1> xAct 2.20> flac16 (level eight)

Taped and transferred by Chris Cafiero, Little Feat archivist
Edited and mastered by Alex Ford


01. crowd/tuning
02. Ain't Had Enough Fun
03. Honest Man
04. Sailin' Shoes
05. Gold Tooth Woman
06. Two Trains >
07. Rocket In My Pocket
08. Willin' >
09. Don't Bogart That Joint >
10. Long Black Veil >
11. Willin'
12. Down On The Farm >
13. Candyman Blues

---------------------
Total = 50min. 35sec.
---------------------

Notes:

- All editing and mastering with UAD-2 in 24/44.1
- Tracked in WaveLab 7.2.1
- SBE Free
- Meta tagging with xAct 2.20


Shntool Output:

length expanded size cdr WAVE problems fmt ratio filename
0:23.00 4057244 B --- -- ----- wav 1.0000 pandf-2012-10-19.cmc6mk4v.cafiero.ford-t01.wav
3:50.18 40614380 B --- -- ----- wav 1.0000 pandf-2012-10-19.cmc6mk4v.cafiero.ford-t02.wav
5:11.24 54916892 B --- -- ----- wav 1.0000 pandf-2012-10-19.cmc6mk4v.cafiero.ford-t03.wav
5:23.13 57007820 B --- -- ----- wav 1.0000 pandf-2012-10-19.cmc6mk4v.cafiero.ford-t04.wav
4:03.34 42945212 B --- -- ----- wav 1.0000 pandf-2012-10-19.cmc6mk4v.cafiero.ford-t05.wav
4:23.58 46529660 B --- -- ----- wav 1.0000 pandf-2012-10-19.cmc6mk4v.cafiero.ford-t06.wav
5:17.16 55956476 B --- -- ----- wav 1.0000 pandf-2012-10-19.cmc6mk4v.cafiero.ford-t07.wav
6:18.08 66698060 B --- -- ----- wav 1.0000 pandf-2012-10-19.cmc6mk4v.cafiero.ford-t08.wav
1:26.20 15217484 B --- -- ----- wav 1.0000 pandf-2012-10-19.cmc6mk4v.cafiero.ford-t09.wav
3:06.28 32876300 B --- -- ----- wav 1.0000 pandf-2012-10-19.cmc6mk4v.cafiero.ford-t10.wav
1:22.26 14525996 B --- -- ----- wav 1.0000 pandf-2012-10-19.cmc6mk4v.cafiero.ford-t11.wav
5:22.00 56800844 B --- -- ----- wav 1.0000 pandf-2012-10-19.cmc6mk4v.cafiero.ford-t12.wav
4:28.52 47397548 B --- -- ----- wav 1.0000 pandf-2012-10-19.cmc6mk4v.cafiero.ford-t13.wav
50:35.72 535543916 B 1.0000 (13 files)

Reviews

There are no reviews yet. Be the first one to write a review.
Uploaded by
Albix
on 1/3/2013
Views
199
Favorites
1
PEOPLE ALSO FOUND
Paul Barrere and Fred Tackett Acoustic Duo
by Paul Barrere and Fred Tackett Acoustic Duo
207
0
0
Source: Sennheiser ME64(ORTF) > Sound Devices 722 (16/44.1)
Paul Barrere and Fred Tackett Acoustic Duo
by Paul Barrere and Fred Tackett Acoustic Duo
172
0
0
Source: Sennheiser ME64(ORTF) > Sound Devices 722 (16/44.1)
Paul Barrere and Fred Tackett Acoustic Duo
by Paul Barrere and Fred Tackett Acoustic Duo
245
0
0
Source: Sennheiser ME64(ORTF) > Sound Devices 722 (16/44.1)
Paul Barrere and Fred Tackett Acoustic Duo
by Paul Barrere and Fred Tackett Acoustic Duo
205
0
0
Source: Sennheiser ME64(ORTF) > Sound Devices 722 (16/44.1)
Paul Barrere and Fred Tackett Acoustic Duo
by Paul Barrere and Fred Tackett Acoustic Duo
91
0
0
Source: Olympus ME 51S Stereo Electret Condenser Microphone > Olympus LS-10 Linear PCM Recorder (16bit/44.1kHz)
Paul Barrere and Fred Tackett Acoustic Duo
by Paul Barrere and Fred Tackett Acoustic Duo
227
0
0
Source: Sennheiser ME64(ORTF) > Sound Devices 722 (16/44.1)
Paul Barrere and Fred Tackett Acoustic Duo
by Paul Barrere and Fred Tackett Acoustic Duo
91
0
0
Source: Source 1: M21>V3>R44 Source 2: M200>SDMP2>R44
Paul Barrere and Fred Tackett Acoustic Duo
by Paul Barrere and Fred Tackett Acoustic Duo
66
0
0
Source: AKG C4000 > Tascam 680 (48K/24bit)
Paul Barrere and Fred Tackett Acoustic Duo
by Paul Barrere and Fred Tackett Acoustic Duo
47
0
0
Source: SBD > Tascam DR-100
Paul Barrere and Fred Tackett Acoustic Duo
by Paul Barrere and Fred Tackett Acoustic Duo
183
0
0
Source: SBD > SBM-1 > D-8